<?xml version="1.0" standalone="no"?>
<!DOCTYPE svg PUBLIC "-//W3C//DTD SVG 1.1//EN" "http://www.w3.org/Graphics/SVG/1.1/DTD/svg11.dtd" >
<svg xmlns="http://www.w3.org/2000/svg">
<metadata>Generated by IcoMoon</metadata>
<defs>
<font id="icomoon" horiz-adv-x="1024">
<font-face units-per-em="1024" ascent="960" descent="-64" />
<missing-glyph horiz-adv-x="1024" />
<glyph unicode="&#x20;" horiz-adv-x="512" d="" />
<glyph unicode="&#xe905;" d="M1024 127.6c0-105.813-85.779-191.6-191.6-191.6h-640.801c-105.82 0-191.6 85.779-191.6 191.6v640.801c0 105.82 85.779 191.6 191.6 191.6h640.808c105.813 0 191.593-85.779 191.593-191.6v-640.801z" />
<glyph unicode="&#xe906;" d="M858.747 797.782h-250.775c-35.276 0-63.867-28.591-63.867-63.867v-250.775c0-4.522 0.48-8.922 1.372-13.173h-417.055c-9.334 0-16.898-7.563-16.898-16.898s7.563-16.898 16.898-16.898h436.379c11.369-10.456 26.496-16.898 43.17-16.898h250.775c35.276 0 63.867 28.591 63.867 63.867v250.775c0 35.276-28.591 63.867-63.867 63.867zM728.29 513.901c-62.528 0-113.215 50.686-113.215 113.215s50.686 113.215 113.215 113.215 113.215-50.686 113.215-113.215-50.686-113.215-113.215-113.215z" />
<glyph unicode="&#xe907;" d="M810.467 263.247l-37.243-25.806h-283.651v59.243h-34.289c0 0 7.617-34.289-26.671-34.289s-26.671 41.906-26.671 41.906h-278.129c0 0-13.363-13.565-17.682-67.334-0.872-2.487-1.365-5.144-1.365-8.016 0-4.819 0.081-9.368 0.196-13.761-0.122-4.393-0.196-8.942-0.196-13.755 0-2.879 0.493-5.529 1.365-8.023 4.319-53.768 17.682-67.334 17.682-67.334h278.122c0 0-7.617 41.906 26.671 41.906s26.671-34.289 26.671-34.289h34.289v59.243h283.658l37.243-25.806 102.008 31.335v33.437l-102.008 31.342z" />
<glyph unicode="&#xe908;" d="M1024 127.6c0-105.813-85.779-191.6-191.6-191.6h-640.801c-105.82 0-191.6 85.779-191.6 191.6v640.801c0 105.82 85.779 191.6 191.6 191.6h640.808c105.813 0 191.593-85.779 191.593-191.6v-640.801z" />
<glyph unicode="&#xe909;" d="M796.442 615.287c0 0-114.904 0-155.459 0s-54.073-40.554-54.073-40.554v-250.086h-57.452v358.231c0 72.903-59.71 97.412-86.8 97.412l-2.183 0.595h-245.591c-63.096 0-103.901-41.683-103.901-72.383l-0.865-2.602v-408.289h3.38v-33.795l121.663-47.314c0 0 13.518 74.35 60.832 108.145h-152.079v375.372c0 21.156 22.974 47.070 70.97 47.070h240.826c27.28 0 59.953-21.649 59.953-64.211v-358.231h-77.729c47.314-33.795 60.832-108.145 60.832-108.145h128.422c0 0 6.759 128.422 128.422 128.422s141.941-135.182 141.941-135.182h74.35v209.531l-155.459 196.013z" />
<glyph unicode="&#xe90a;" d="M738.99 311.129c-54.133 0-98.007-43.88-98.007-98.007s43.873-98.007 98.007-98.007 98.007 43.88 98.007 98.007-43.873 98.007-98.007 98.007zM738.99 171.114c-23.204 0-42.001 18.811-42.001 42.008s18.797 42.008 42.001 42.008c23.197 0 42.001-18.811 42.001-42.008s-18.804-42.008-42.001-42.008z" />
<glyph unicode="&#xe90b;" d="M346.964 311.129c-54.133 0-98.007-43.88-98.007-98.007s43.873-98.007 98.007-98.007 98.007 43.88 98.007 98.007-43.873 98.007-98.007 98.007zM346.964 171.114c-23.204 0-42.001 18.811-42.001 42.008s18.797 42.008 42.001 42.008c23.197 0 42.001-18.811 42.001-42.008s-18.804-42.008-42.001-42.008z" />
<glyph unicode="&#xe90c;" d="M1024 127.6c0-105.813-85.773-191.6-191.593-191.6h-640.801c-105.827 0-191.606 85.779-191.606 191.6v640.801c0 105.82 85.779 191.6 191.606 191.6h640.808c105.813 0 191.586-85.779 191.586-191.6v-640.801z" />
<glyph unicode="&#xe90d;" d="M759.605 129.026c0.182 7.543 0.041 7.543-7.273 7.543-157.25 0-314.5 0.014-471.756-0.108-4.535-0.014-5.684 1.027-5.678 5.624 0.149 89.524 0.115 179.041 0.115 268.565 0 98.838 0.034 197.669-0.095 296.507 0 4.028 0.791 5.306 5.11 5.245 20.527-0.257 41.041-0.155 61.568-0.054 2.819 0.007 3.988-0.649 4.745-3.643 6.016-23.846 26.583-40.622 51.166-40.764 55.898-0.318 111.782-0.324 167.666-0.020 24.988 0.128 44.941 16.249 51.68 40.771 0.804 2.94 1.845 3.67 4.677 3.65 17.364-0.115 34.735-0.162 52.099 0.041 3.623 0.047 4.454-0.98 4.414-4.488-0.169-18.466-0.068-36.938-0.101-55.411 0-3.961 0.365-7.901 1.244-11.734 4.704-20.352 23.819-33.87 44.373-31.47 20.588 2.406 35.952 19.331 36.039 40.156 0.142 29.841 0.074 59.689 0.034 89.524-0.034 31.065-24.096 54.965-55.303 54.965-48.625 0-97.256 0.027-145.888-0.061-3.353-0.007-5.225 0.385-4.948 4.414 0.189 2.954-0.338 5.989-0.879 8.922-7.165 38.412-41.102 66.279-82.684 63.535-36.83-2.427-68.098-33.917-70.477-72.336-0.237-3.724-1.223-4.569-4.812-4.549-48.469 0.122-96.939 0.074-145.415 0.074-32.193 0-55.884-23.65-55.884-55.789 0-104.516 0-209.038 0-313.56 0-105.164-0.014-210.302 0.014-315.46 0.007-29.895 24.204-54.167 54.106-54.188 152.829-0.027 305.672-0.027 458.495 0 24.704 0.020 46.949 17.952 52.349 41.994 2.386 10.632 1.054 21.399 1.298 32.106zM477.941 828.13c17.824-0.811 33.207-16.303 33.025-34.64-0.182-18.614-16.019-34.336-34.498-34.269-18.811 0.061-34.525 15.945-34.424 34.789 0.46 21.007 18.405 34.904 35.897 34.12z" />
<glyph unicode="&#xe90e;" d="M857.916 515.138c-46.367 46.996-103.177 65.691-168.632 58.277-90.477-10.254-175.27-91.876-172.972-202.15 2.224-106.908 90.835-195.074 199.352-194.459 110.017 0.047 199.21 89.037 199.062 198.933-0.061 54.059-18.919 100.994-56.81 139.399zM809.271 444.384c-15.938-31.599-31.774-63.231-47.618-94.884-13.16-26.3-26.225-52.64-39.459-78.905-8.976-17.817-28.307-23.474-44.035-13.099-2.805 1.838-5.191 4.143-7.225 6.759-18.067 23.285-36.181 46.543-54.113 69.923-10.355 13.505-7.78 31.741 5.644 41.981 12.842 9.787 31.031 7.334 41.318-5.718 8.388-10.632 16.621-21.399 25.441-32.768 8.516 17.040 16.648 33.343 24.799 49.645 14.167 28.266 28.307 56.54 42.515 84.779 5.684 11.274 14.911 17.695 27.536 17.432 12.329-0.264 21.588-6.448 26.752-17.878 4.197-9.26 2.954-18.331-1.555-27.266z" />
<glyph unicode="&#xe90f;" d="M439.536 280.409c0.007 2.886-0.784 3.738-3.724 3.738-30.152-0.115-60.298-0.128-90.443 0-3.116 0.014-3.947-0.852-3.934-3.968 0.122-30.139 0.122-60.291 0-90.443-0.014-3.069 0.791-3.995 3.927-3.961 14.985 0.162 29.99 0.074 44.975 0.074 15.154 0 30.314 0.081 45.462-0.074 2.927-0.020 3.751 0.811 3.745 3.717-0.095 30.301-0.095 60.615-0.007 90.916zM408.41 213.223c-11.984 0.142-23.974 0.142-35.958 0-2.643-0.014-3.576 0.649-3.494 3.4 0.196 6.158 0.068 12.308 0.068 18.466 0 6.151 0.115 12.288-0.061 18.446-0.068 2.555 0.818 3.177 3.238 3.143 12.153-0.108 24.299-0.108 36.452 0 2.562 0.034 3.623-0.575 3.596-3.386-0.135-12.146-0.142-24.285 0.007-36.431 0.041-3.035-1.068-3.67-3.846-3.636z" />
<glyph unicode="&#xe910;" d="M439.509 422.937c0.020 3.285-0.899 4.245-4.218 4.224-29.963-0.128-59.933-0.122-89.909-0.014-3.069 0.014-3.961-0.771-3.954-3.914 0.128-30.139 0.142-60.264-0.014-90.382-0.014-3.603 1.338-4.008 4.373-3.981 14.823 0.142 29.659 0.061 44.481 0.061 14.978 0 29.97 0.095 44.948-0.074 3.231-0.034 4.312 0.784 4.299 4.17-0.122 29.977-0.122 59.933-0.007 89.909zM412.256 359.99c0.034-2.737-0.473-3.853-3.576-3.805-12.133 0.176-24.272 0.149-36.398 0-2.819-0.034-3.386 0.987-3.319 3.535 0.155 6.137 0.047 12.274 0.047 18.432 0.007 5.995 0.176 11.977-0.074 17.952-0.122 3.028 0.912 3.663 3.751 3.63 11.815-0.149 23.636-0.196 35.451 0.014 3.447 0.068 4.177-1.102 4.13-4.292-0.162-11.822-0.135-23.65-0.014-35.465z" />
<glyph unicode="&#xe911;" d="M435.109 569.839c-29.835-0.155-59.683-0.149-89.524-0.014-3.332 0.014-4.164-0.912-4.15-4.197 0.135-29.997 0.115-59.994 0.007-89.997-0.007-3.035 0.703-3.981 3.859-3.947 14.998 0.176 29.997 0.081 44.995 0.081s29.997 0.095 44.995-0.074c3.231-0.034 4.251 0.716 4.238 4.123-0.142 29.835-0.142 59.683 0 89.524 0.014 3.461-0.811 4.515-4.42 4.502zM412.256 502.681c0.020-2.65-0.716-3.501-3.44-3.474-12.139 0.142-24.279 0.128-36.418 0.007-2.636-0.027-3.528 0.662-3.447 3.386 0.196 6.151 0.068 12.302 0.068 18.446 0 5.995 0.122 11.984-0.061 17.972-0.088 2.751 0.48 3.839 3.569 3.799 11.97-0.196 23.968-0.162 35.938-0.020 2.852 0.034 3.819-0.757 3.792-3.697-0.142-12.139-0.122-24.279 0-36.418z" />
<glyph unicode="&#xe912;" d="M1024 127.6c0-105.813-85.779-191.6-191.6-191.6h-640.801c-105.82 0-191.6 85.779-191.6 191.6v640.801c0 105.82 85.779 191.6 191.6 191.6h640.808c105.813 0 191.593-85.779 191.593-191.6v-640.801z" />
<glyph unicode="&#xe913;" d="M838.207 791.868c-19.953 63.495-77.628 101.92-128.828 85.827l-518.286-155.087c-51.193-16.093-76.513-80.602-56.56-144.097 19.96-63.488 77.628-101.913 128.821-85.827l518.293 155.094c51.193 16.093 76.513 80.602 56.56 144.090zM247.146 539.727c-27.273-8.571-58.878 14.708-70.599 51.998s0.885 74.465 28.158 83.035 58.878-14.708 70.599-51.998c11.72-37.29-0.885-74.465-28.158-83.035z" />
<glyph unicode="&#xe914;" d="M390.201 413.339l-193.465-57.891c-51.193-16.087-76.513-80.602-56.56-144.090 19.96-63.488 77.628-101.913 128.821-85.82l172.187 51.524c1.108 81.778-39.906 204.651-50.984 236.277zM252.796 172.568c-27.273-8.577-58.878 14.708-70.599 51.991s0.885 74.471 28.158 83.035c27.273 8.577 58.872-14.708 70.599-51.991 11.713-37.283-0.885-74.465-28.158-83.035z" />
<glyph unicode="&#xe915;" d="M886.453 479.058c-24.779 82.204-65.387 160.028-114.607 219.866l-33.66-10.071 5.732-6.36c103.988-123.623 151.342-309.843 130.315-406.288l-0.257-1.548c-7.496-64.286-37.351-79.23-41.001-80.818-17.459-5.076-332.256-96.594-390.080-112.85 9.868 24.725 43.535 124.252 4.961 250.823-37.891 124.333-103.833 212.424-120.967 233.972l-31.741-9.497 0.764-3.238 2.474-2.927c0.771-0.919 77.885-93.16 118.865-227.632 39.98-131.187-5.394-232.864-5.779-233.715-2.089-4.4-8.293-19.696-0.635-31.795 2.535-4.008 8.631-10.72 20.994-10.72 3.501 0 7.239 0.534 11.43 1.636 25.096 6.604 384.118 110.991 399.387 115.431l0.73 0.23c2.116 0.723 51.768 18.763 62.298 106.611 11.531 53.998 4.549 130.072-19.223 208.889z" />
<glyph unicode="&#xe916;" d="M1024 127.6c0-105.813-85.779-191.6-191.6-191.6h-640.801c-105.82 0-191.6 85.779-191.6 191.6v640.801c0 105.827 85.779 191.6 191.6 191.6h640.808c105.813 0 191.593-85.773 191.593-191.6v-640.801z" />
<glyph unicode="&#xe917;" d="M880.816 786.887v-519.374h-747.588v519.374h747.588zM892.171 813.119h-770.298c-8.212 0-14.877-6.651-14.877-14.863v-542.098c0-8.212 6.658-14.863 14.877-14.863h770.298c8.212 0 14.877 6.651 14.877 14.863v542.091c0 8.212-6.664 14.87-14.877 14.87v0z" />
<glyph unicode="&#xe918;" d="M702.444 89.14c0 34.769-28.185 62.954-62.954 62.954h-55.073v99.669h-152.147v-99.669h-52.464c-34.775 0-62.954-28.192-62.954-62.954h385.592z" />
<glyph unicode="&#xe919;" d="M805.243 591.779c0-61.562-49.916-111.471-111.484-111.471h-367.234c-61.568 0-111.484 49.909-111.484 111.471v0c0 61.568 49.909 111.484 111.484 111.484h367.234c61.568 0.007 111.484-49.909 111.484-111.484v0z" />
<glyph unicode="&#xe91a;" d="M313.303 643.878c7.070 1.203 16.999 2.109 30.997 2.109 14.14 0 24.225-2.71 30.997-8.138 6.468-5.103 10.835-13.532 10.835-23.468 0-9.943-3.305-18.371-9.328-24.083-7.82-7.367-19.412-10.679-32.957-10.679-3.008 0-5.718 0.142-7.827 0.446v-36.269h-22.717v100.082zM336.021 597.828c1.96-0.446 4.366-0.602 7.678-0.602 12.193 0 19.716 6.171 19.716 16.553 0 9.334-6.475 14.904-17.912 14.904-4.664 0-7.827-0.46-9.483-0.912v-29.943z" />
<glyph unicode="&#xe91b;" d="M400.732 643.878c7.374 1.203 18.358 2.109 30.558 2.109 15.046 0 25.583-2.264 32.809-7.982 6.022-4.812 9.328-11.889 9.328-21.223 0-12.937-9.179-21.818-17.905-24.975v-0.46c7.070-2.852 10.983-9.632 13.545-18.959 3.156-11.43 6.32-24.677 8.28-28.591h-23.481c-1.656 2.866-4.062 11.139-7.070 23.623-2.71 12.646-7.077 16.114-16.404 16.256h-6.935v-39.879h-22.724v100.082zM423.456 600.241h9.030c11.43 0 18.209 5.718 18.209 14.593 0 9.334-6.32 13.998-16.857 14.147-5.569 0-8.726-0.446-10.382-0.757v-27.983z" />
<glyph unicode="&#xe91c;" d="M512.994 645.237v-101.433h-23.021v101.433h23.021z" />
<glyph unicode="&#xe91d;" d="M532.859 543.803v101.433h26.786l21.068-37.168c6.022-10.686 12.038-23.326 16.553-34.769h0.446c-1.501 13.396-1.947 27.084-1.947 42.292v29.645h21.061v-101.433h-24.076l-21.663 39.135c-6.029 10.835-12.646 23.927-17.607 35.816l-0.446-0.155c0.595-13.383 0.899-27.692 0.899-44.238v-30.558h-21.075z" />
<glyph unicode="&#xe91e;" d="M656.252 625.973h-27.232v19.263h77.952v-19.263h-27.685v-82.17h-23.035v82.17z" />
<glyph unicode="&#xe91f;" d="M739.166 414.407l-97.054 41.96 7.868-104.914 20.994 34.1 44.59-60.332 26.225 18.358-39.345 57.716z" />
<glyph unicode="&#xe920;" d="M1024 127.6c0-105.813-85.773-191.6-191.6-191.6h-640.801c-105.827 0-191.6 85.779-191.6 191.6v640.801c0 105.82 85.773 191.6 191.6 191.6h640.808c105.82 0 191.593-85.779 191.593-191.6v-640.801z" />
<glyph unicode="&#xe921;" d="M800.714 682.391v80.48l-73.748 69.558-522.733-64.637v-81.731l143.921-37.182 47.976 3.555v-324.726l-2.501 0.108-138.304-21.751v-190.45l98.818-12.214 126.638 55.161v56.33l-38.716 3.089v9.030l142.583-10.909v-39.966l-43.643-21.203v-71.734l112.998-13.849 85.185 66.097v177.926l-144.239 6.022v347.754z" />
<glyph unicode="&#xe922;" d="M309.336 173.886v63.812l0.588 0.142 132.147-10.842 0.791-9.598-0.541-0.169-132.985-43.346zM310.897 236.481v-60.453l130.396 42.515 0.771 8.469-131.167 9.469z" />
<glyph unicode="&#xe923;" d="M353.358 102.206v68.936l128.199 44.86v-57.946l-128.199-55.85zM354.926 170.033v-65.448l125.077 54.492v54.721l-125.077-43.765z" />
<glyph unicode="&#xe924;" d="M354.236 169.79l-47.908 4.758 135.797 44.211 42.393-3.38-130.281-45.59zM313.885 175.366l40.162-3.988 122.975 43.035-34.87 2.771-128.267-41.818z" />
<glyph unicode="&#xe925;" d="M348.079 648.096l-0.128 0.027-148.267 38.304 196.703 18.101-0.264-52.085-48.044-4.346zM208.754 685.696l139.474-36.026 47.908 2.771-0.101 50.551-187.28-17.296z" />
<glyph unicode="&#xe926;" d="M396.19 297.942l-0.095 0.007-148.281 7.726 145.678 22.913 1.541-16.174 1.156-14.471zM262.84 306.458l133.242-6.948-1.041 12.896-1.446 14.62-130.754-20.568z" />
<glyph unicode="&#xe927;" d="M484.558 293.095v420.090l111.167-45.509v-348.89l-0.608-0.142-110.558-25.549zM486.126 710.86v-415.812l108.044 24.968v346.619l-108.044 44.225z" />
<glyph unicode="&#xe928;" d="M584.802 149.85l-46.638 4.583 46.482 21.71-0.149-24.691 0.304-1.602zM543.828 155.44l40.048-3.934 0.771 24.637-40.818-20.703z" />
<glyph unicode="&#xe929;" d="M653.224 67.748v218.102l86.746 28.591v-179.386l-0.297-0.23-86.449-67.077zM654.779 284.721v-213.79l83.63 64.887v176.473l-83.63-27.57z" />
<glyph unicode="&#xe92a;" d="M654.103 284.491l-174.35 9.098 115.222 26.59 148.531-6.198-89.402-29.49zM490.932 294.562l162.961-8.489 80.974 26.692-139.845 5.847-104.090-24.049z" />
<glyph unicode="&#xe92b;" d="M654.779 68.464l-0.872 0.108-113.681 13.944v73.289l43.65-4.299v63.873l-272.979 20.872v-60.582l44.029-4.373v-68.774l-100.379 12.41v191.951l140.805-7.334v403.375l-191.904-17.722v83.279l524.288 64.826v-99.683l-241.61-22.312v-416.494l168.652-8.8v-217.554zM541.78 83.895l111.437-13.667v214.31l-168.659 8.794v419.401l241.61 22.312v96.499l-521.159-64.448v-80.183l191.904 17.729v-406.741l-140.798 7.34v-188.93l97.25-12.018v65.59l-44.029 4.366v63.698l276.101-21.115v-67.043l-43.65 4.292v-70.186z" />
<glyph unicode="&#xe92c;" d="M594.826 666.365l-0.162 0.068-112.566 46.077 245.321 22.46 75.539-53.201-208.132-15.404zM488.58 711.536l106.496-43.589 203.414 15.059-71.741 50.531-238.17-22.001z" />
<glyph unicode="&#xe92d;" d="M801.498 680.884l-75.33 53.059v100.291l75.33-71.024v-82.326zM727.736 734.74l72.207-50.849v78.649l-72.207 68.077v-95.877z" />
<glyph unicode="&#xe92e;" d="M1024 127.6c0-105.813-85.779-191.6-191.593-191.6h-640.808c-105.82 0-191.6 85.779-191.6 191.6v640.801c0 105.827 85.779 191.6 191.6 191.6h640.814c105.807 0 191.586-85.773 191.586-191.6v-640.801z" />
<glyph unicode="&#xe92f;" d="M774.11 294.285h-274.696c-2.109 17.296-6.631 33.849-13.282 49.294l-54.701 175.040c34.174 37.182 51.896 70.443 53.309 73.153l2.183 4.164-1.183 4.556c-0.365 1.419-36.81 142.481-53.701 217.223l-8.712 38.594-14.573-36.783c-27.787-70.146-83.028-112.343-136.452-153.161-42.204-32.241-82.069-62.697-104.941-104.63-59.994-109.99-29.551-300.488-28.226-308.545l0.845 0.101c9.524-90.855 86.57-161.92 179.913-161.92h579.3l-125.083 202.914zM411.979 498.909l28.807-92.18c-25.401 22.859-57.276 38.642-92.511 44.218 24.576 14.241 45.786 31.024 63.704 47.962zM163.448 271.189c1.784 35.756 16.452 123.596 115.655 150.646 5.394 1.473 10.652 3.143 15.83 4.894 8.131 1.305 16.465 2.014 24.961 2.014 64.015 0 119.142-38.662 143.346-93.85l3.9-12.47 0.845 0.264c5.401-15.83 8.381-32.775 8.381-50.409 0-86.273-70.193-156.459-156.459-156.459-85.928 0-155.864 69.598-156.459 155.371zM500.739 269.838h259.724l94.945-154.019h-444.862c53.248 30.977 89.314 88.307 90.193 154.019z" />
<glyph unicode="&#xe930;" d="M371.235 272.284c0-28.355-22.987-51.342-51.342-51.342s-51.342 22.987-51.342 51.342c0 28.355 22.987 51.342 51.342 51.342s51.342-22.987 51.342-51.342z" />
<glyph unicode="&#xfbed;" d="M1024 127.6c0-105.813-85.779-191.6-191.6-191.6h-640.801c-105.82 0-191.6 85.779-191.6 191.6v640.801c0 105.82 85.779 191.6 191.6 191.6h640.808c105.813 0 191.593-85.779 191.593-191.6v-640.801z" />
<glyph unicode="&#xfbee;" d="M921.438 384.776c-38.304 13.68-427.877 173.911-431.804 175.526l-3.542 1.46-98.649-14.505-117.946-26.84c4.062-8.070 6.786-17.121 7.847-26.8l114.702 26.124 90.524 13.309c41.46-17.046 386.16-158.737 428.465-174.168-64.245-19.020-338.792-100.386-361.367-107.909-5.982-1.994-11.903-3.001-17.601-3.001v0c-8.422 0-13.586 2.251-13.606 2.251l-408.045 203.989c-0.629 0.27-1.223 0.541-1.778 0.791 0.757 0.27 1.487 0.5 2.163 0.689l46.469 10.585c-1.345 5.867-2.136 11.997-2.136 18.364 0 3.366 0.27 6.651 0.662 9.895l-51.68-11.768c-8.55-2.278-28.564-9.361-29.753-25.853-1.21-16.749 17.83-25.232 24.684-28.172l406.95-203.475c1.061-0.534 10.828-5.198 26.077-5.198v0c8.699 0 17.587 1.494 26.414 4.434 24.603 8.199 369.897 110.416 373.425 111.464 9.28 2.778 19.297 9.76 19.588 21.007 0.433 16.911-20.94 24.542-30.064 27.8z" />
<glyph unicode="&#xfbef;" d="M742.877 453.995c-21.953 34.634-59.216 52.93-93.079 42.285l-8.929-2.677 102.008-39.608z" />
<glyph unicode="&#xfbf0;" d="M216.872 372.109l-35.472-10.619c-42.258-13.282-63.164-66.536-46.692-118.946s64.083-84.13 106.341-70.849l235.621 70.511-259.799 129.903zM227.679 210.527c-22.514-7.077-48.605 12.139-58.277 42.927-9.672 30.781 0.723 61.467 23.238 68.544s48.598-12.146 58.277-42.927c9.679-30.781-0.723-61.474-23.238-68.544z" />
<glyph unicode="&#xfbf1;" d="M715.59 684.689c-16.479 52.41-64.076 84.13-106.341 70.849l-427.843-128.024c-42.258-13.282-63.164-66.536-46.692-118.946s64.083-84.13 106.341-70.849l427.85 128.030c42.258 13.275 63.164 66.53 46.685 118.939zM227.679 476.544c-22.514-7.070-48.605 12.146-58.277 42.927s0.723 61.474 23.238 68.551c22.514 7.077 48.598-12.146 58.277-42.927s-0.723-61.474-23.238-68.551z" />
</font>
</defs>
</svg>
